Social media share
Our service is free and here for you anytime. But we could use your help. Please share on social media with folks who have similar interests. Bring in new members who appreciate what we offer. Your support makes a difference!
Server statistics
Current Load: 0.34
Load 5 mins ago: 0.27
Load 15 mins ago: 0.29
Uptime: 71 days, 19h25m
System: Debian GNU/Linux

Your internet provider watches what you download and might slow down your connection. Use a good VPN to stay private and speed up your connection. With a VPN, you can browse freely, keeping your online activities secure and uninterrupted.
Advertising area
Useful information

Sktorrent.org is a private torrent site where you can share and download torrents. It comes with a forum, and as a registered member, you have the power to upload, edit, and delete your torrents. Remember to check out the rules before diving in. Join us and be part of our torrent community, where sharing and downloading are made easy and secure!

DogMan.2023.720p.WEB-DL.DD5.1.H.264-FLUX.mkv

DogMan.2023.720p.WEB-DL.DD5.1.H.264-FLUX.mkv


Download this torrent
Health:
Seeds: 0
Leechers: 0
Completed:
Last Checked: 25.01.2024 08:10:33
Information: To download this torrent, you need a BitTorrent client.
Recommendation: We recommend use a VPN when downloading torrent.
Description details of this torrent

DogMan 2023 720p WEB-DL DD5 1 H264-FLUX



IMDB info

PLOT A boy, bruised by life, finds his salvation through the love of his dogs.

Rating : 6.8/10 based on 2.8K user ratings
Director, Writer: Luc Besson
Cast: Caleb Landry Jones, Christopher Denham, Marisa Berenson and others
Genres : Crime, Drama, Thriller
IMDB link: 17009348


SCREENSHOTS





General
Unique ID : 112843713400429515372068493361863701968 (0x54E4E89E6CCD9583410234332D8BB5D0)
Complete name : DogMan.2023.720p.WEB-DL.DD5.1.H.264-FLUX.mkv
Format : Matroska
Format version : Version 4
File size : 2.56 GiB
Duration : 1 h 54 min
Overall bit rate : 3 201 kb/s
Writing application : mkvmerge v79.0 ('Funeral Pyres') 64-bit
Writing library : libebml v1.4.4 + libmatroska v1.7.1

Video
ID : 1
Format : AVC
Format/Info : Advanced Video Codec
Format profile : [email protected]
Format settings : CABAC / 5 Ref Frames
Format settings, CABAC : Yes
Format settings, Reference frames : 5 frames
Codec ID : V_MPEG4/ISO/AVC
Duration : 1 h 54 min
Bit rate : 2 754 kb/s
Width : 1 480 pixels
Height : 620 pixels
Display aspect ratio : 2.40:1
Frame rate mode : Constant
Frame rate : 24.000 FPS
Color space : YUV
Chroma subsampling : 4:2:0
Bit depth : 8 bits
Scan type : Progressive
Bits/(Pixel*Frame) : 0.125
Stream size : 2.20 GiB (86%)
Language : English
Default : Yes
Forced : No
Color range : Limited
Color primaries : BT.709
Transfer characteristics : BT.709
Matrix coefficients : BT.709

Audio
ID : 2
Format : AC-3
Format/Info : Audio Coding 3
Commercial name : Dolby Digital
Codec ID : A_AC3
Duration : 1 h 54 min
Bit rate mode : Constant
Bit rate : 384 kb/s
Channel(s) : 6 channels
Channel layout : L R C LFE Ls Rs
Sampling rate : 48.0 kHz
Frame rate : 31.250 FPS (1536 SPF)
Compression mode : Lossy
Stream size : 315 MiB (12%)
Language : English (US)
Service kind : Complete Main
Default : Yes
Forced : No

Text #1
ID : 3
Format : UTF-8
Codec ID : S_TEXT/UTF8
Codec ID/Info : UTF-8 Plain Text
Language : English (US)
Default : Yes
Forced : Yes

Text #2
ID : 4
Format : UTF-8
Codec ID : S_TEXT/UTF8
Codec ID/Info : UTF-8 Plain Text
Language : Arabic
Default : No
Forced : No

Menu
00:00:00.000 : en:Chapter 01
00:27:35.416 : en:Chapter 02
00:54:27.416 : en:Chapter 03
01:50:36.791 : en:Chapter 04

Name:DogMan.2023.720p.WEB-DL.DD5.1.H.264-FLUX.mkv
Category:Movies > HD / FHD
Language:English  
Total Size:2.56 GB
Info Hash:4125c9b92c4ba0fa49706597cfc2acea9945c17c
Added By:Anonymous
Date Added:25-01-2024 05:39:42
Views:15
Hits:1
Report system:Report Torrent
Information:For anonymous downloading use VPN
Download link:Download torrent file

Tracker list:

http://xtremebytes.net/announce.php


This Torrent also has backup trackers

URLSeedersLeechersCompleted
http://xtremebytes.net/announce.php000
https://opentracker.i2p.rocks:443/announce000


Click here on + to show the full file list  


NFO - file for this torrent:

Login panel
Username
Password
Signups are open
Advertising area