Social media share
Our service is free and here for you anytime. But we could use your help. Please share on social media with folks who have similar interests. Bring in new members who appreciate what we offer. Your support makes a difference!
Server statistics
Current Load: 0.15
Load 5 mins ago: 0.21
Load 15 mins ago: 0.22
Uptime: 71 days, 18h21m
System: Debian GNU/Linux

Your internet provider watches what you download and might slow down your connection. Use a good VPN to stay private and speed up your connection. With a VPN, you can browse freely, keeping your online activities secure and uninterrupted.
Advertising area
Useful information

Sktorrent.org is a private torrent site where you can share and download torrents. It comes with a forum, and as a registered member, you have the power to upload, edit, and delete your torrents. Remember to check out the rules before diving in. Join us and be part of our torrent community, where sharing and downloading are made easy and secure!

Dua.Lipa.Studio.2054.2020.VO1080p.WEB-DL.AAC2.0.H264

Dua.Lipa.Studio.2054.2020.VO1080p.WEB-DL.AAC2.0.H264


Download this torrent
Health:
Seeds: 1
Leechers: 0
Speed: No Activity
Completed:
Last Checked: 23.02.2024 07:46:26
Information: To download this torrent, you need a BitTorrent client.
Recommendation: We recommend use a VPN when downloading torrent.
Description details of this torrent
  


Dua Lipa: Studio 2054

Soundtracks :

Intro
Future Nostalgia
Levitating
Pretty Please
Break My Heart
Why Don't You Love
Physical
Boys Will Be Boys (Zach Witness Remix)
Cool
New Rules
Prisoner (ft. Miley Cyrus)
Un Dia (One day)
Fever (ft. Angelè)
One Kiss
Real Groove (Kylie Minogue)
Electricity
Rocket Man (Elton John Cover)
Hallucinate
Don't Start Now

General
Unique ID: 325070799340398856405802975617685808027 (0xF48E5BD07515787F614222684DAA639B)
Complete name: Dua.Lipa.Studio.2054.2020.1080p.WEB-DL.VO.AAC2.0.H264.mkv
Format: Matroska
Format version: Version 4
File size: 3.38 GiB
Duration: 1 h 51 min
Overall bit rate mode: Variable
Overall bit rate: 4 351 kb/s
Movie name: Dua Lipa: Studio 2054
Encoded date: UTC 2021-05-08 13:56:08
Writing application: mkvmerge v56.1.0 ('My Friend') 64-bit
Writing library: libebml v1.4.2 + libmatroska v1.6.4
Cover: Yes

Video
ID: 1
Format: AVC
Format/Info: Advanced Video Codec
Format profile: Main@L4
Format settings: CABAC / 4 Ref Frames
Format settings, CABAC: Yes
Format settings, Reference frames: 4 frames
Codec ID: V_MPEG4/ISO/AVC
Duration: 1 h 51 min
Bit rate mode: Variable
Bit rate: 4 156 kb/s
Maximum bit rate: 40.0 Mb/s
Width: 1 920 pixels
Height: 1 080 pixels
Display aspect ratio: 16:9
Frame rate mode: Constant
Frame rate: 25.000 FPS
Color space: YUV
Chroma subsampling: 4:2:0
Bit depth: 8 bits
Scan type: Progressive
Bits/(Pixel*Frame): 0.080
Stream size: 3.23 GiB (96%)
Default: Yes
Forced: No

Audio
ID: 2
Format: AAC LC
Format/Info: Advanced Audio Codec Low Complexity
Codec ID: A_AAC-2
Duration: 1 h 51 min
Bit rate: 192 kb/s
Channel(s): 2 channels
Channel layout: L R
Sampling rate: 48.0 kHz
Frame rate: 46.875 FPS (1024 SPF)
Compression mode: Lossy
Stream size: 153 MiB (4%)
Title: AAC stéréo
Language: English
Default: Yes
Forced: No
Name:Dua.Lipa.Studio.2054.2020.VO1080p.WEB-DL.AAC2.0.H264
Category:Movies > HD / FHD
Language:English  
Total Size:3.38 GB
Info Hash:923c56bf67e5291cdb4135a99b1d720f2c594ef4
Added By:Anonymous
Date Added:28-01-2024 12:06:58
Views:16
Hits:14
Report system:Report Torrent
Information:For anonymous downloading use VPN
Download link:Download torrent file
Peers List:
Port Uploaded Downloaded Ratio Left Ready% Seed Conn. Client Nick
514130.00 B0.00 B---0.00 B100.00%yesnoTransmission/4.0.5nocisco

Click here on + to show the full file list  

Login panel
Username
Password
Signups are open
Advertising area